Меню

Скачать бесплатно клип и песню где ты там я нюша бесплатно



Нюша — Где ты, там я [2015, Pop, WEBRip 720p]

Формат: WEBRip, MP4, H.264, AAC
Песня: Где ты, там я
Жанр: Pop
Продолжительность: 00:04:10
Год выпуска: 2015

Видео: 1280×720р (16:9), 25,000fps, AVC (x264) High@L3.1 ,

2 673 kbps avg, 0.116 bit/pixel
Аудио: 44,1KHz, AAC-LC, 2ch,

Доп. информация: На съемках клипа перед Нюшей и ее танцорами стояла нелегкая задача, ведь танцевальной основой видео стали индийские танцы. Зрителей будут ждать удивительное по красоте зрелище, невероятная компьютерная графика и путешествие в волшебный мир Индии. «Съемки клипа – это всегда невероятный драйв! Но эти я точно запомню навсегда! Это было безумно интересно – учиться говорить жестами. Выразить любовь в танце. Надеюсь, что готовое видео передаст наши ощущения в работе над ним!» — рассказывает Нюша.

General
Complete name : D:НЮША — Где ты, там я.mp4
Format : MPEG-4
Format profile : Base Media / Version 2
Codec ID : mp42
File size : 85.5 MiB
Duration : 4mn 10s
Overall bit rate mode : Variable
Overall bit rate : 2 867 Kbps
Encoded date : UTC 2015-06-24 20:04:27
Tagged date : UTC 2015-06-24 20:04:27
gsst : 0
gstd : 250240
gssd : B4A7DD843HM1435262254347600
gshh : r3—sn-cg07lues.googlevideo.com

Video
ID : 1
Format : AVC
Format/Info : Advanced Video Codec
Format profile : High@L3.1
Format settings, CABAC : Yes
Format settings, ReFrames : 1 frame
Codec ID : avc1
Codec ID/Info : Advanced Video Coding
Duration : 4mn 10s
Bit rate : 2 673 Kbps
Maximum bit rate : 5 352 Kbps
Width : 1 280 pixels
Height : 720 pixels
Display aspect ratio : 16:9
Frame rate mode : Constant
Frame rate : 25.000 fps
Color space : YUV
Chroma subsampling : 4:2:0
Bit depth : 8 bits
Scan type : Progressive
Bits/(Pixel*Frame) : 0.116
Stream size : 79.7 MiB (93%)
Tagged date : UTC 2015-06-24 20:04:29

Читайте также:  Индийски кино когда я жив скачать бесплатно

Audio
ID : 2
Format : AAC
Format/Info : Advanced Audio Codec
Format profile : LC
Codec ID : 40
Duration : 4mn 10s
Bit rate mode : Variable
Bit rate : 192 Kbps
Maximum bit rate : 202 Kbps
Channel(s) : 2 channels
Channel positions : Front: L R
Sampling rate : 44.1 KHz
Compression mode : Lossy
Stream size : 5.73 MiB (7%)
Title : IsoMedia File Produced by Google, 5-11-2011
Encoded date : UTC 2015-06-24 20:04:28
Tagged date : UTC 2015-06-24 20:04:29

Источник

Нюша — Где ты, там я [2015, Pop, WEBRip 1080p]

Формат: WEBRip, MP4, H.264, AAC
Песня: Где ты, там я
Жанр: Pop
Продолжительность: 00:04:10
Год выпуска: 2015

Видео: 1920х1080р (16:9), 25.000 fps, AVC MPEG-4 (x264) High@L4.0,

3 984 Kbps avg, 0.077bit/pixel
Аудио: 44,1KHz, AAC-LC, 2ch,

Доп. информация: На съемках клипа перед Нюшей и ее танцорами стояла нелегкая задача, ведь танцевальной основой видео стали индийские танцы. Зрителей будут ждать удивительное по красоте зрелище, невероятная компьютерная графика и путешествие в волшебный мир Индии. «Съемки клипа – это всегда невероятный драйв! Но эти я точно запомню навсегда! Это было безумно интересно – учиться говорить жестами. Выразить любовь в танце. Надеюсь, что готовое видео передаст наши ощущения в работе над ним!» — рассказывает Нюша.

General
Complete name : E:DOWNLOADSНюша — Где ты, там я.mp4
Format : MPEG-4
Format profile : Base Media
Codec ID : isom
File size : 123 MiB
Duration : 4mn 10s
Overall bit rate mode : Variable
Overall bit rate : 4 112 Kbps
Encoded date : UTC 2015-06-24 20:04:38
Tagged date : UTC 2015-06-24 20:04:38

Video
ID : 1
Format : AVC
Format/Info : Advanced Video Codec
Format profile : High@L4.0
Format settings, CABAC : Yes
Format settings, ReFrames : 2 frames
Codec ID : avc1
Codec ID/Info : Advanced Video Coding
Duration : 4mn 10s
Bit rate : 3 984 Kbps
Width : 1 920 pixels
Height : 1 080 pixels
Display aspect ratio : 16:9
Frame rate mode : Constant
Frame rate : 25.000 fps
Color space : YUV
Chroma subsampling : 4:2:0
Bit depth : 8 bits
Scan type : Progressive
Bits/(Pixel*Frame) : 0.077
Stream size : 119 MiB (97%)
Encoded date : UTC 2015-06-24 20:04:38
Tagged date : UTC 2015-06-24 20:04:38

Читайте также:  The elder scrolls online когда станет бесплатной

Audio
ID : 2
Format : AAC
Format/Info : Advanced Audio Codec
Format profile : LC
Codec ID : 40
Duration : 4mn 10s
Bit rate mode : Variable
Bit rate : 126 Kbps
Channel(s) : 2 channels
Channel positions : Front: L R
Sampling rate : 44.1 KHz
Compression mode : Lossy
Stream size : 3.75 MiB (3%)
Encoded date : UTC 2015-06-24 20:02:27
Tagged date : UTC 2015-06-24 20:02:27

Источник

Adblock
detector