Меню

Наша где ты там я клип скачать бесплатно



Нюша — Где ты, там я [2015, Pop, WEBRip 1080p]

Формат: WEBRip, MP4, H.264, AAC
Песня: Где ты, там я
Жанр: Pop
Продолжительность: 00:04:10
Год выпуска: 2015

Видео: 1920х1080р (16:9), 25.000 fps, AVC MPEG-4 (x264) High@L4.0,

3 984 Kbps avg, 0.077bit/pixel
Аудио: 44,1KHz, AAC-LC, 2ch,

Доп. информация: На съемках клипа перед Нюшей и ее танцорами стояла нелегкая задача, ведь танцевальной основой видео стали индийские танцы. Зрителей будут ждать удивительное по красоте зрелище, невероятная компьютерная графика и путешествие в волшебный мир Индии. «Съемки клипа – это всегда невероятный драйв! Но эти я точно запомню навсегда! Это было безумно интересно – учиться говорить жестами. Выразить любовь в танце. Надеюсь, что готовое видео передаст наши ощущения в работе над ним!» — рассказывает Нюша.

General
Complete name : E:DOWNLOADSНюша — Где ты, там я.mp4
Format : MPEG-4
Format profile : Base Media
Codec ID : isom
File size : 123 MiB
Duration : 4mn 10s
Overall bit rate mode : Variable
Overall bit rate : 4 112 Kbps
Encoded date : UTC 2015-06-24 20:04:38
Tagged date : UTC 2015-06-24 20:04:38

Video
ID : 1
Format : AVC
Format/Info : Advanced Video Codec
Format profile : High@L4.0
Format settings, CABAC : Yes
Format settings, ReFrames : 2 frames
Codec ID : avc1
Codec ID/Info : Advanced Video Coding
Duration : 4mn 10s
Bit rate : 3 984 Kbps
Width : 1 920 pixels
Height : 1 080 pixels
Display aspect ratio : 16:9
Frame rate mode : Constant
Frame rate : 25.000 fps
Color space : YUV
Chroma subsampling : 4:2:0
Bit depth : 8 bits
Scan type : Progressive
Bits/(Pixel*Frame) : 0.077
Stream size : 119 MiB (97%)
Encoded date : UTC 2015-06-24 20:04:38
Tagged date : UTC 2015-06-24 20:04:38

Audio
ID : 2
Format : AAC
Format/Info : Advanced Audio Codec
Format profile : LC
Codec ID : 40
Duration : 4mn 10s
Bit rate mode : Variable
Bit rate : 126 Kbps
Channel(s) : 2 channels
Channel positions : Front: L R
Sampling rate : 44.1 KHz
Compression mode : Lossy
Stream size : 3.75 MiB (3%)
Encoded date : UTC 2015-06-24 20:02:27
Tagged date : UTC 2015-06-24 20:02:27

Читайте также:  Индия сериал когда мы встретились на русском языке просмотр бесплатно

Источник

Adblock
detector